<?xml version="1.0" standalone="no"?>
<!DOCTYPE svg PUBLIC "-//W3C//DTD SVG 1.1//EN" "http://www.w3.org/Graphics/SVG/1.1/DTD/svg11.dtd" >
<svg xmlns="http://www.w3.org/2000/svg">
<metadata></metadata>
<defs>
<font id="futura_lightregular" horiz-adv-x="1024" >
<font-face units-per-em="2048" ascent="1638" descent="-410" />
<missing-glyph horiz-adv-x="589" />
<glyph horiz-adv-x="0" />
<glyph horiz-adv-x="682" />
<glyph unicode=" "  horiz-adv-x="589" />
<glyph unicode="&#x09;" horiz-adv-x="589" />
<glyph unicode="&#xa0;" horiz-adv-x="589" />
<glyph unicode="!" horiz-adv-x="634" d="M215 63q0 43 29.5 73t72.5 30t73 -29.5t30 -73.5t-30 -73t-73 -29t-72.5 29.5t-29.5 72.5zM256 303v1194h123v-1194h-123z" />
<glyph unicode="&#x22;" horiz-adv-x="550" d="M100 881v553h86v-553h-86zM365 881v553h86v-553h-86z" />
<glyph unicode="#" horiz-adv-x="1574" d="M129 494l31 90h336l100 282h-360l28 90h365l176 498h110l-174 -498h271l176 498h110l-174 -498h322l-31 -90h-323l-101 -282h348l-30 -90h-351l-174 -494h-112l176 494h-270l-179 -494h-110l174 494h-334zM610 584h269l100 282h-270z" />
<glyph unicode="$" horiz-adv-x="1179" d="M160 274l114 58q62 -199 281 -217v633q-175 86 -253.5 173t-78.5 209q0 133 87.5 222.5t244.5 111.5v101h80v-99q201 -23 293 -178l-105 -57q-28 54 -76.5 85t-111.5 36v-506q197 -95 278.5 -186t81.5 -240q0 -165 -97 -278.5t-263 -139.5v-170h-80v174q-276 0 -395 268z M356 1135q0 -83 48 -142.5t151 -109.5v469q-87 -12 -143 -74.5t-56 -142.5zM635 117q108 14 170.5 92t62.5 201q0 100 -56 172t-177 129v-594z" />
<glyph unicode="%" horiz-adv-x="1497" d="M63 1104q0 178 78.5 276.5t214.5 98.5q137 0 216 -98.5t79 -276.5q0 -177 -79 -276t-216 -99q-138 0 -215.5 98t-77.5 277zM182 1106q0 -138 44.5 -210.5t129.5 -72.5t130.5 73.5t45.5 209.5q0 280 -176 280q-84 0 -129 -72t-45 -208zM270 -39l842 1518h109l-842 -1518 h-109zM848 334q0 178 78.5 276.5t214.5 98.5q137 0 216 -98.5t79 -276.5q0 -177 -78.5 -275t-216.5 -98t-215.5 97.5t-77.5 275.5zM967 336q0 -138 44.5 -210.5t129.5 -72.5t130.5 73.5t45.5 209.5q0 280 -176 280q-84 0 -129 -72t-45 -208z" />
<glyph unicode="&#x26;" horiz-adv-x="1310" d="M86 381q0 131 87.5 241.5t275.5 231.5l-56 74q-39 51 -59.5 82.5t-37.5 81.5t-17 104q0 111 89.5 186.5t229.5 75.5q127 0 208 -76.5t81 -195.5q0 -102 -65 -184.5t-206 -172.5l361 -446q113 141 174 242l86 -50q-92 -154 -199 -280l252 -295h-145l-182 215 q-105 -123 -214.5 -182.5t-232.5 -59.5q-191 0 -310.5 117t-119.5 291zM213 387q0 -128 90.5 -217.5t218.5 -89.5q173 0 373 221l-383 467l-66 -47q-50 -36 -78 -57.5t-62 -55t-51.5 -63t-29.5 -70.5t-12 -88zM401 1188q0 -81 68 -170l82 -111l65 45q154 109 154 236 q0 72 -52.5 120t-127.5 48q-82 0 -135.5 -47t-53.5 -121z" />
<glyph unicode="'" horiz-adv-x="284" d="M100 881v553h86v-553h-86z" />
<glyph unicode="(" horiz-adv-x="559" d="M184 555q0 547 238 977l90 -49q-213 -436 -213 -932q0 -544 213 -944l-90 -53q-238 439 -238 1001z" />
<glyph unicode=")" horiz-adv-x="559" d="M47 -393q215 404 215 944q0 491 -215 932l90 49q238 -430 238 -977q0 -562 -238 -1001z" />
<glyph unicode="*" horiz-adv-x="854" d="M119 1006l233 122l-233 129l43 78l227 -145l-6 274h88l-8 -274l229 143l43 -76l-233 -129l233 -122l-47 -78l-227 139l8 -266h-86l8 264l-229 -137z" />
<glyph unicode="+" horiz-adv-x="1705" d="M254 569v80h559v570h80v-570h559v-80h-559v-569h-80v569h-559z" />
<glyph unicode="," horiz-adv-x="589" d="M121 -283l203 537l145 -61l-264 -515z" />
<glyph unicode="-" horiz-adv-x="710" d="M137 377v129h436v-129h-436z" />
<glyph unicode="." horiz-adv-x="589" d="M193 84q0 43 29.5 72.5t72.5 29.5t72.5 -29t29.5 -73t-29.5 -73t-72.5 -29t-72.5 29.5t-29.5 72.5z" />
<glyph unicode="/" horiz-adv-x="825" d="M0 -190l717 1687h108l-716 -1687h-109z" />
<glyph unicode="0" horiz-adv-x="1179" d="M102 719q0 359 131.5 559.5t358.5 200.5q226 0 356.5 -199.5t130.5 -560.5q0 -362 -130.5 -560t-360.5 -198q-222 0 -354 200.5t-132 557.5zM233 717q0 -298 96 -467.5t263 -169.5q174 0 264 162.5t90 478.5q0 311 -92 475t-266 164q-165 0 -260 -171.5t-95 -471.5z" />
<glyph unicode="1" horiz-adv-x="1179" d="M281 1331l63 119h330v-1450h-129v1331h-264z" />
<glyph unicode="2" horiz-adv-x="1179" d="M72 0l315 346q30 32 93 100t88 96t74.5 83t69.5 82.5t54 73t48 74.5t31 67t23 72t6 69q0 131 -89 214t-234 83q-144 0 -231 -91t-87 -249v-6h-131v14q0 209 124.5 330t338.5 121q205 0 329 -112.5t124 -295.5q0 -84 -20 -155t-76 -151.5t-96.5 -128t-139.5 -153.5 q-15 -16 -22 -24l-322 -344h670v-115h-940z" />
<glyph unicode="3" horiz-adv-x="1179" d="M98 369h144q9 -142 90 -215.5t229 -73.5q155 0 240.5 84t85.5 225q0 144 -85 228.5t-235 84.5q-38 0 -65 -2v127q35 -2 73 -2q136 0 212.5 71t76.5 191q0 124 -78.5 199.5t-207.5 75.5q-117 0 -190.5 -62t-86.5 -174h-143q17 162 131 257.5t289 95.5q189 0 306 -104.5 t117 -274.5q0 -125 -66.5 -215t-186.5 -125q133 -43 205.5 -140t72.5 -231q0 -193 -124 -310.5t-341 -117.5q-209 0 -329.5 106t-133.5 302z" />
<glyph unicode="4" horiz-adv-x="1179" d="M61 371l793 1128v-1014h150v-114h-150v-371h-133v371h-660zM260 485h461l2 660z" />
<glyph unicode="5" horiz-adv-x="1179" d="M82 240l104 77q65 -123 150 -180t205 -57q159 0 255.5 103.5t96.5 279.5q0 162 -98 258t-265 96q-188 0 -303 -106l-41 4l187 735h592v-113h-500l-115 -454q117 49 217 49q207 0 335 -127.5t128 -333.5q0 -229 -137 -370.5t-358 -141.5q-307 0 -453 281z" />
<glyph unicode="6" horiz-adv-x="1179" d="M123 408q0 64 15.5 129.5t36 116.5t64.5 123.5t75.5 118.5t95.5 134l342 477l108 -67l-469 -635q118 74 234 74q185 0 305.5 -124.5t120.5 -326.5q0 -209 -135.5 -339t-346.5 -130q-203 0 -324.5 123t-121.5 326zM260 416q0 -157 90 -248.5t238 -91.5q147 0 236 98 t89 260q0 144 -89 238t-234 94q-149 0 -239.5 -98t-90.5 -252z" />
<glyph unicode="7" horiz-adv-x="1179" d="M184 1337v113h899l-737 -1495l-123 63l668 1319h-707z" />
<glyph unicode="8" horiz-adv-x="1179" d="M125 393q0 149 76.5 255t210.5 140q-109 34 -170.5 121.5t-61.5 210.5q0 155 113.5 257t298.5 102q188 0 298.5 -103.5t110.5 -271.5q0 -114 -59.5 -195t-171.5 -121q131 -34 208 -140t77 -251q0 -201 -122.5 -318.5t-340.5 -117.5t-342.5 118t-124.5 314zM264 399 q0 -148 85.5 -233.5t240.5 -85.5t241.5 87t86.5 232q0 150 -88 237t-240 87t-239 -86.5t-87 -237.5zM319 1100q0 -118 72.5 -188t202.5 -70q128 0 200 70t72 188q0 121 -75 191.5t-199 70.5q-125 0 -199 -71t-74 -191z" />
<glyph unicode="9" horiz-adv-x="1179" d="M123 1010q0 209 135 339t346 130q204 0 326.5 -123t122.5 -326q0 -76 -19 -149t-62 -153.5t-88 -148.5t-120 -171l-350 -476l-109 66l477 635q-115 -72 -231 -72q-186 0 -307 124t-121 325zM262 1006q0 -144 88.5 -239t233.5 -95q149 0 240 98t91 252q0 157 -90 249.5 t-237 92.5t-236.5 -98t-89.5 -260z" />
<glyph unicode=":" horiz-adv-x="634" d="M215 84q0 43 29.5 72.5t72.5 29.5t73 -29t30 -73t-30 -73t-73 -29t-72.5 29.5t-29.5 72.5zM215 760q0 43 29.5 72.5t72.5 29.5t73 -29t30 -73t-30 -73.5t-73 -29.5t-72.5 30t-29.5 73z" />
<glyph unicode=";" horiz-adv-x="634" d="M129 -283l203 537l145 -61l-264 -515zM301 760q0 43 29.5 72.5t72.5 29.5t73 -29t30 -73t-30 -73.5t-73 -29.5t-72.5 30t-29.5 73z" />
<glyph unicode="&#x3c;" horiz-adv-x="1705" d="M264 580v61l1178 483v-90l-1045 -424l1045 -424v-88z" />
<glyph unicode="=" horiz-adv-x="1705" d="M254 389v80h1198v-80h-1198zM254 752v79h1198v-79h-1198z" />
<glyph unicode="&#x3e;" horiz-adv-x="1705" d="M264 98v88l1045 424l-1045 424v90l1178 -483v-61z" />
<glyph unicode="?" horiz-adv-x="1052" d="M172 1096v32q0 170 98 269.5t265 99.5q152 0 242.5 -90t90.5 -242q0 -43 -7.5 -80t-18 -65.5t-34 -57.5t-41.5 -48.5t-56.5 -47t-63.5 -44t-76 -48.5q-10 -6 -42 -26t-40 -25.5t-32.5 -22t-31.5 -24t-23.5 -23t-21.5 -26t-13 -27t-10.5 -33t-2.5 -35.5q0 -71 46 -115 t122 -44q87 0 137 47t50 131v18h110v-24q0 -135 -80 -207t-231 -72q-124 0 -202.5 75t-78.5 194q0 35 8 66.5t18 55t33 50t39.5 43t53 42t57 38.5t66.5 42q126 81 164 115q75 77 77 170q0 96 -58 154.5t-157 58.5q-113 0 -175 -69t-62 -199v-6h-119zM401 63q0 43 30 73 t73 30t72.5 -29.5t29.5 -73.5t-29.5 -73t-72.5 -29t-73 29.5t-30 72.5z" />
<glyph unicode="@" horiz-adv-x="2048" d="M121 522q0 329 198 572q143 175 344.5 265.5t450.5 90.5q162 0 306.5 -45t246.5 -123q128 -98 194 -226.5t66 -277.5q0 -169 -63 -308t-181 -232q-139 -111 -305 -111q-192 0 -192 145q0 11 4 39q-49 -89 -125 -136.5t-166 -47.5q-154 0 -233.5 83t-79.5 243 q0 151 62.5 276.5t168 196.5t230.5 71q194 0 256 -170l61 129h80l-137 -553q-21 -79 -21 -108q0 -43 30.5 -67.5t86.5 -24.5q98 0 203 76q100 73 161.5 205.5t61.5 283.5q0 271 -199 438.5t-526 167.5q-336 0 -569 -192q-310 -257 -310 -672q0 -325 220.5 -521t592.5 -196 q160 0 323 50t300 143l29 -45q-296 -220 -648 -220q-375 0 -620 185q-301 228 -301 616zM690 446q0 -116 57.5 -180.5t159.5 -64.5q111 0 196 72.5t116 193.5l63 254q-45 203 -233 203q-152 0 -255.5 -138.5t-103.5 -339.5z" />
<glyph unicode="A" horiz-adv-x="1222" d="M-18 0l643 1522l616 -1522h-145l-187 496h-598l-194 -496h-135zM356 610h510l-250 637z" />
<glyph unicode="B" horiz-adv-x="1132" d="M182 0v1464h254q144 0 224 -12.5t143 -58.5q149 -112 149 -310q0 -117 -61.5 -199t-167.5 -108q140 -20 220.5 -112.5t80.5 -233.5q0 -223 -152 -342q-75 -58 -169 -73t-265 -15h-256zM315 115h197q103 0 161.5 9t104.5 44q46 36 74.5 100t28.5 135q0 89 -31 155t-86 99 q-43 26 -94.5 33.5t-132.5 7.5h-222v-583zM315 813h166q174 0 254 56t80 204q0 159 -76.5 217t-257.5 58h-166v-535z" />
<glyph unicode="C" horiz-adv-x="1464" d="M113 731q0 166 59.5 309.5t162.5 243t245 156.5t303 57q279 0 477 -154l-4 -147q-214 184 -461 184q-189 0 -335 -83t-225 -230.5t-79 -335.5q0 -191 82 -339.5t222.5 -228t316.5 -79.5q261 0 473 170l-2 -156q-104 -66 -226.5 -101.5t-238.5 -35.5q-219 0 -394 95.5 t-275.5 272t-100.5 402.5z" />
<glyph unicode="D" horiz-adv-x="1427" d="M182 0v1464h228q98 0 147 -0.5t126.5 -5.5t124.5 -14.5t103 -28.5t101 -47q143 -88 222 -253.5t79 -383.5q0 -198 -64.5 -351.5t-183.5 -244.5q-49 -38 -105.5 -63.5t-107 -39.5t-120.5 -21.5t-123 -9t-138 -1.5h-289zM315 115h197q167 0 265 15t173 69q106 76 163.5 213 t57.5 321q0 302 -149 467q-33 37 -69 63.5t-80 43t-82.5 26.5t-97.5 14.5t-102 5.5t-118 1h-158v-1239z" />
<glyph unicode="E" horiz-adv-x="1050" d="M182 0v1464h725v-125h-592v-458h592v-125h-592v-631h592v-125h-725z" />
<glyph unicode="F" horiz-adv-x="1026" d="M182 0v1464h725v-125h-592v-458h570v-125h-570v-756h-133z" />
<glyph unicode="G" horiz-adv-x="1673" d="M113 729q0 219 93.5 394t262.5 274.5t383 99.5q221 0 380.5 -79.5t246.5 -237.5l-97 -84q-181 280 -512 280q-181 0 -321 -84t-216.5 -234.5t-76.5 -342.5q0 -176 78.5 -320.5t219.5 -227.5t316 -83q245 0 401 146t159 378h-506v115h651v-21q0 -345 -192 -543t-525 -198 q-165 0 -303.5 56t-235.5 156t-151.5 243.5t-54.5 312.5z" />
<glyph unicode="H" horiz-adv-x="1427" d="M182 0v1464h133v-594h797v594h133v-1464h-133v756h-797v-756h-133z" />
<glyph unicode="I" horiz-adv-x="497" d="M182 0v1464h133v-1464h-133z" />
<glyph unicode="J" horiz-adv-x="763" d="M6 113l94 86q83 -111 185 -111q104 0 143 75t39 238v1063h133v-1149q0 -176 -79.5 -265t-231.5 -89q-188 0 -283 152z" />
<glyph unicode="K" horiz-adv-x="1175" d="M182 0v1464h133v-686l662 686h174l-694 -700l727 -764h-193l-676 743v-743h-133z" />
<glyph unicode="L" horiz-adv-x="845" d="M182 0v1464h133v-1339h502v-125h-635z" />
<glyph unicode="M" horiz-adv-x="1712" d="M88 0l199 1526l561 -1303l582 1303l188 -1526h-137l-109 1118l-522 -1175l-514 1175l-111 -1118h-137z" />
<glyph unicode="N" horiz-adv-x="1525" d="M182 0v1526l1028 -1225v1163h133v-1507l-1028 1227v-1184h-133z" />
<glyph unicode="O" horiz-adv-x="1792" d="M113 729q0 158 58.5 298.5t170.5 248.5q224 221 553 221q331 0 555 -221q112 -108 170.5 -249.5t58.5 -297.5q0 -155 -59.5 -295.5t-169.5 -247.5q-113 -109 -255 -167t-300 -58q-159 0 -300.5 58t-252.5 167q-110 109 -169.5 249.5t-59.5 293.5zM254 729 q0 -177 85 -326.5t232.5 -236t323.5 -86.5t324 86.5t233.5 236t85.5 326.5q0 178 -86 328t-234 236.5t-323 86.5t-322 -86t-233 -236t-86 -329z" />
<glyph unicode="P" d="M182 0v1464h285q127 0 203 -12.5t141 -60.5q68 -50 106.5 -137t38.5 -193q0 -213 -119.5 -308.5t-367.5 -95.5h-154v-657h-133zM315 774h91q61 0 105 2.5t89.5 9t76 19t59 33t44.5 50t25.5 70t9.5 93.5q0 160 -98 239q-47 38 -115 48t-196 10h-91v-574z" />
<glyph unicode="Q" horiz-adv-x="1792" d="M113 731q0 155 59 294.5t170 248.5q110 108 253 165.5t300 57.5q158 0 301 -57.5t254 -165.5q112 -108 170.5 -247.5t58.5 -295.5q0 -319 -235 -545l248 -288h-162l-178 206q-210 -135 -469 -135q-153 0 -292.5 56.5t-248.5 162.5q-112 108 -170.5 248t-58.5 295z M256 731q0 -133 50 -252.5t135.5 -206t205 -137.5t252.5 -51q106 0 204 32.5t163 88.5l-340 395h164l272 -317q176 194 176 448q0 177 -86 326.5t-234 236t-323 86.5q-174 0 -321 -86t-232.5 -235.5t-85.5 -327.5z" />
<glyph unicode="R" horiz-adv-x="1081" d="M182 0v1464h269q475 0 475 -399q0 -171 -102 -269t-279 -98l526 -698h-162l-514 698h-80v-698h-133zM315 807h134q178 0 255.5 55.5t77.5 206.5q0 155 -77 217t-256 62h-134v-541z" />
<glyph unicode="S" horiz-adv-x="1019" d="M70 246l114 61q30 -108 110 -167.5t189 -59.5q139 0 217 81t78 228q0 53 -13.5 96t-34 74t-59.5 62t-75 53t-96 53q-77 41 -127.5 71t-100.5 69.5t-77.5 78.5t-44.5 90t-17 111q0 156 105.5 254t273.5 98q221 0 324 -186l-103 -62q-31 63 -90 96t-139 33q-108 0 -172 -64 t-64 -171q0 -29 4.5 -54t15 -47t22 -39t31.5 -34.5t37 -30t46 -29t50 -28t57.5 -30.5t60.5 -32q116 -63 179 -116t98.5 -130t35.5 -186q0 -197 -115 -312.5t-313 -115.5q-289 0 -407 285z" />
<glyph unicode="T" horiz-adv-x="1017" d="M39 1339v125h940v-125h-404v-1339h-133v1339h-403z" />
<glyph unicode="U" horiz-adv-x="1417" d="M176 551v913h133v-956q0 -216 98.5 -322t301.5 -106q202 0 300.5 106t98.5 322v956h133v-913q0 -297 -132 -443.5t-400 -146.5t-400.5 147t-132.5 443z" />
<glyph unicode="V" horiz-adv-x="1128" d="M-18 1464h153l422 -1192l444 1192h146l-592 -1503z" />
<glyph unicode="W" horiz-adv-x="1839" d="M25 1464h139l366 -1169l390 1227l405 -1217l352 1159h138l-490 -1503l-405 1225l-390 -1225z" />
<glyph unicode="X" horiz-adv-x="991" d="M-25 0l447 770l-404 694h150l330 -581l333 581h144l-404 -690l445 -774h-148l-372 649l-375 -649h-146z" />
<glyph unicode="Y" horiz-adv-x="1118" d="M10 1464h160l393 -671l395 671h152l-481 -790v-674h-133v674z" />
<glyph unicode="Z" horiz-adv-x="1146" d="M25 0l870 1343h-743v121h970l-866 -1341h778v-123h-1009z" />
<glyph unicode="[" horiz-adv-x="559" d="M221 -412v1909h291v-98h-174v-1712h174v-99h-291z" />
<glyph unicode="\" horiz-adv-x="825" d="M0 1497h109l716 -1687h-108z" />
<glyph unicode="]" horiz-adv-x="559" d="M47 -313h176v1712h-176v98h291v-1909h-291v99z" />
<glyph unicode="^" horiz-adv-x="2048" d="M424 901l539 557h118l541 -557h-125l-473 469l-475 -469h-125z" />
<glyph unicode="_" d="M0 -403h1024v-80h-1024v80z" />
<glyph unicode="`" d="M268 1380h164l213 -350h-94z" />
<glyph unicode="a" horiz-adv-x="1107" d="M84 438q0 214 116 348t296 134q231 0 323 -195v162h123v-887h-123v162q-43 -98 -123 -149.5t-188 -51.5q-191 0 -307.5 131t-116.5 346zM221 434q0 -173 78 -265.5t221 -92.5q137 0 219 100t82 281q0 164 -81 257t-218 93t-219 -99t-82 -274z" />
<glyph unicode="b" horiz-adv-x="1107" d="M164 0v1550h123v-825q92 195 321 195q180 0 296 -134t116 -348q0 -215 -116.5 -346t-307.5 -131q-108 0 -187 51.5t-122 149.5v-162h-123zM285 457q0 -181 82 -281t219 -100q143 0 220 92.5t77 265.5q0 175 -82 274t-219 99q-136 0 -216.5 -93t-80.5 -257z" />
<glyph unicode="c" horiz-adv-x="933" d="M92 432q0 216 136 352t352 136q159 0 276 -60l-2 -135q-127 86 -276 86q-166 0 -263.5 -106t-97.5 -281q0 -153 101 -255.5t260 -102.5q151 0 290 100l2 -135q-136 -74 -315 -74q-203 0 -333 134.5t-130 340.5z" />
<glyph unicode="d" horiz-adv-x="1107" d="M88 438q0 214 116 348t296 134q228 0 323 -195v825h123v-1550h-123v162q-44 -98 -124 -149.5t-187 -51.5q-191 0 -307.5 131t-116.5 346zM225 434q0 -173 78 -265.5t221 -92.5q136 0 217.5 100t81.5 281q0 164 -80.5 257t-216.5 93q-137 0 -219 -99t-82 -274z" />
<glyph unicode="e" horiz-adv-x="1017" d="M88 434q0 219 120.5 352.5t311.5 133.5q182 0 294 -122t112 -327v-31h-705q3 -171 86 -269.5t217 -98.5q192 0 295 213l113 -62q-67 -135 -166 -198.5t-242 -63.5q-194 0 -315 131.5t-121 341.5zM229 545h551q-7 122 -79.5 189t-196.5 67q-109 0 -187 -70.5t-88 -185.5z " />
<glyph unicode="f" horiz-adv-x="530" d="M27 782v105h166v256q0 68 1.5 113t6.5 94.5t15 79.5t27 59.5t42 45t60 25t81 9.5q58 0 119 -21l-23 -108q-49 24 -88 24q-70 0 -94.5 -55.5t-24.5 -185.5v-336h195v-105h-195v-782h-122v782h-166z" />
<glyph unicode="g" horiz-adv-x="1107" d="M90 440q0 217 114 348.5t302 131.5q105 0 192 -56.5t123 -142.5v166h123v-740q0 -310 -41 -397q-90 -196 -381 -196q-177 0 -274.5 68t-120.5 208l154 -4q31 -162 251 -162q81 0 147.5 29.5t98.5 79.5q43 66 43 196v195q-40 -94 -126 -148.5t-195 -54.5q-184 0 -297 128 t-113 351zM223 438q0 -173 76.5 -267.5t208.5 -94.5q138 0 225.5 99t87.5 274q0 171 -81 264.5t-220 93.5q-138 0 -217.5 -98.5t-79.5 -270.5z" />
<glyph unicode="h" horiz-adv-x="1067" d="M164 0v1550h123v-800q101 170 307 170q149 0 234 -83t85 -235v-602h-122v547q0 133 -56 197.5t-174 64.5q-144 0 -209 -85.5t-65 -260.5v-463h-123z" />
<glyph unicode="i" horiz-adv-x="471" d="M141 1233q0 40 28.5 67t66.5 27q39 0 67.5 -27t28.5 -67q0 -39 -27.5 -66.5t-68.5 -27.5t-68 27.5t-27 66.5zM174 0v887h123v-887h-123z" />
<glyph unicode="j" horiz-adv-x="471" d="M141 1233q0 40 28.5 67t66.5 27q39 0 67.5 -27t28.5 -67q0 -39 -27.5 -66.5t-68.5 -27.5t-68 27.5t-27 66.5zM174 -446v1333h123v-1333h-123z" />
<glyph unicode="k" horiz-adv-x="937" d="M164 0v1550h123v-1056l442 393h170l-475 -398l510 -489h-170l-477 459v-459h-123z" />
<glyph unicode="l" horiz-adv-x="471" d="M176 0v1550h123v-1550h-123z" />
<glyph unicode="m" horiz-adv-x="1615" d="M164 0v887h123v-139q42 84 115 128t167 44q196 0 271 -175q108 175 309 175q141 0 222 -86t81 -234v-600h-123v551q0 262 -213 262q-130 0 -188 -85.5t-58 -260.5v-467h-122v551q0 133 -49.5 197.5t-159.5 64.5q-131 0 -191.5 -85.5t-60.5 -260.5v-467h-123z" />
<glyph unicode="n" horiz-adv-x="1067" d="M164 0v887h117v-137q109 170 313 170q149 0 234 -83t85 -235v-602h-122v547q0 133 -56 197.5t-174 64.5q-144 0 -209 -85.5t-65 -260.5v-463h-123z" />
<glyph unicode="o" horiz-adv-x="1142" d="M90 442q0 199 139.5 338.5t337.5 139.5q100 0 190 -37.5t154.5 -101.5t103 -152.5t38.5 -186.5q0 -200 -143 -340.5t-343 -140.5q-196 0 -336.5 140t-140.5 341zM223 440q0 -153 101.5 -258.5t246.5 -105.5q144 0 246.5 105t102.5 259t-101.5 259.5t-247.5 105.5 q-147 0 -247.5 -105t-100.5 -260z" />
<glyph unicode="p" horiz-adv-x="1107" d="M164 -446v1333h123v-166q46 94 128.5 146.5t184.5 52.5q188 0 302 -131.5t114 -348.5q0 -223 -113 -351t-297 -128q-218 0 -319 203v-610h-123zM287 449q0 -175 87.5 -274t225.5 -99q132 0 207.5 94.5t75.5 267.5q0 172 -78.5 270.5t-216.5 98.5q-139 0 -220 -93.5 t-81 -264.5z" />
<glyph unicode="q" horiz-adv-x="1107" d="M90 440q0 217 114 348.5t302 131.5q103 0 186 -52.5t129 -146.5v166h123v-1333h-123v610q-101 -203 -321 -203q-184 0 -297 128t-113 351zM223 438q0 -173 76.5 -267.5t208.5 -94.5q138 0 225.5 99t87.5 274q0 171 -81 264.5t-220 93.5q-138 0 -217.5 -98.5t-79.5 -270.5 z" />
<glyph unicode="r" horiz-adv-x="645" d="M164 0v887h123v-178q68 114 131.5 162.5t154.5 48.5q50 0 105 -19l-39 -117q-47 15 -84 15q-107 0 -187.5 -102t-80.5 -261v-436h-123z" />
<glyph unicode="s" horiz-adv-x="782" d="M63 158l117 67q61 -149 219 -149q79 0 124.5 40t45.5 105q0 30 -10 54t-22.5 39t-41 31t-48 24t-62 24.5t-66.5 26.5q-109 45 -161 103t-52 141q0 113 79.5 185.5t207.5 72.5q107 0 183.5 -46.5t111.5 -134.5l-113 -63q-45 129 -190 129q-64 0 -105.5 -37.5t-41.5 -93.5 q0 -62 48 -96.5t163 -73.5q131 -43 189 -101.5t58 -175.5q0 -121 -85.5 -194.5t-235.5 -73.5q-114 0 -196 52.5t-116 144.5z" />
<glyph unicode="t" horiz-adv-x="507" d="M27 782v105h163v364h123v-364h176v-105h-176v-782h-123v782h-163z" />
<glyph unicode="u" horiz-adv-x="1079" d="M164 381v506h123v-443q0 -194 54.5 -281t197.5 -87t198.5 87t55.5 281v443h122v-506q0 -209 -94.5 -314.5t-279.5 -105.5q-184 0 -280.5 106t-96.5 314z" />
<glyph unicode="v" horiz-adv-x="874" d="M31 887h135l272 -672l271 672h137l-408 -926z" />
<glyph unicode="w" horiz-adv-x="1327" d="M25 887h129l231 -639l279 686l278 -686l232 639h129l-355 -926l-282 688l-287 -688z" />
<glyph unicode="x" horiz-adv-x="806" d="M0 0l332 461l-301 426h153l217 -326l217 326h150l-299 -426l330 -461h-152l-248 358l-245 -358h-154z" />
<glyph unicode="y" horiz-adv-x="825" d="M43 887h131l254 -694l234 694h131l-459 -1333h-127l155 452z" />
<glyph unicode="z" horiz-adv-x="780" d="M23 0l495 776h-461v111h674l-491 -778h505v-109h-722z" />
<glyph unicode="{" d="M176 485v90q18 -2 49 -2q140 0 197 65.5t57 221.5v240q0 88 8 147t28.5 106t57.5 72.5t93.5 38.5t138.5 13h43v-88h-37q-74 0 -118 -12.5t-69.5 -46t-33.5 -80t-8 -126.5v-241q0 -162 -39 -240.5t-156 -112.5q118 -35 156.5 -112t38.5 -240v-241q0 -79 8 -125.5t33 -79.5 t69 -45.5t117 -12.5h39v-88h-43q-103 0 -166 18.5t-99 65.5t-48.5 113.5t-12.5 177.5v240q0 157 -57 221.5t-201 64.5q-7 0 -22 -1t-23 -1z" />
<glyph unicode="|" d="M467 -483v2048h90v-2048h-90z" />
<glyph unicode="}" d="M176 -326h39q73 0 117 12.5t69 45.5t33 79.5t8 125.5v241q0 162 39 239.5t158 112.5q-119 34 -158 112t-39 241v241q0 80 -8 126.5t-33.5 80t-69.5 46t-118 12.5h-37v88h43q82 0 138.5 -13t93.5 -38.5t57.5 -72.5t28.5 -106t8 -147v-240q0 -157 57.5 -222t200.5 -65 q7 0 22 1t23 1v-90q-8 0 -23 1t-22 1q-144 0 -201 -64.5t-57 -221.5v-240q0 -111 -12.5 -177.5t-48.5 -113.5t-99 -65.5t-166 -18.5h-43v88z" />
<glyph unicode="~" horiz-adv-x="1705" d="M178 481v92q211 148 387 148q19 0 39.5 -2t36.5 -4t38.5 -7.5t34.5 -8.5t37 -11.5t33 -11.5t36 -13t34 -12q142 -52 203 -63q45 -8 86 -8q87 0 180 39.5t207 119.5v-92q-210 -147 -387 -147q-51 0 -109 12.5t-84 21.5t-96 35q-4 1 -40 14.5t-44 16t-38 12t-43.5 12.5 t-38 8.5t-44.5 7t-41 1.5q-87 0 -180 -40t-207 -120z" />
<glyph unicode="&#xa1;" horiz-adv-x="634" d="M215 1395q0 43 29.5 72.5t72.5 29.5t73 -29t30 -73t-30 -73.5t-73 -29.5t-72.5 30t-29.5 73zM256 -39v1196h123v-1196h-123z" />
<glyph unicode="&#xa2;" horiz-adv-x="1179" d="M123 735q0 197 119.5 330t324.5 156v161h80v-159q135 0 283 -60v-135q-118 76 -283 86v-745q187 21 283 96v-131q-121 -69 -283 -72v-205h-80v207q-195 9 -319.5 142.5t-124.5 328.5zM254 748q0 -153 83.5 -253.5t229.5 -119.5v735q-133 -10 -223 -114.5t-90 -247.5z" />
<glyph unicode="&#xa3;" horiz-adv-x="1179" d="M100 20q71 133 195 170q80 112 80 205q0 90 -45 205h-230v90h185q-103 220 -103 371q0 182 125 300t324 118q202 0 319 -113t123 -315l-127 -23q-3 159 -85.5 246.5t-225.5 87.5q-147 0 -232.5 -82.5t-85.5 -220.5q0 -133 101 -369h389v-90h-358q38 -100 38 -176 q0 -143 -102 -229q57 0 119 -18t106.5 -39.5t97.5 -39.5t95 -18q63 0 113.5 35t97.5 108l88 -59q-107 -201 -291 -201q-54 0 -115 19t-105.5 41.5t-98.5 41.5t-97 19q-118 0 -209 -125z" />
<glyph unicode="&#xa4;" horiz-adv-x="1179" d="M4 549l21 98h133q-2 23 -2 72q0 32 4 90h-156l21 100h147q46 260 201.5 415t369.5 155q211 0 359 -154v-149q-163 184 -348 184q-176 0 -294 -121t-157 -330h651l-28 -100h-635q-4 -58 -4 -90q0 -49 2 -72h588l-31 -98h-547q35 -218 153 -343.5t287 -125.5 q98 0 194.5 43.5t174.5 126.5l-4 -152q-77 -66 -174.5 -101.5t-186.5 -35.5q-224 0 -380 157.5t-195 430.5h-164z" />
<glyph unicode="&#xa5;" horiz-adv-x="1181" d="M33 631v98h456l-98 162h-358v100h293l-283 461h147l402 -676l412 676h135l-281 -461h289v-100h-352l-99 -162h451v-98h-490v-631h-127v631h-497z" />
<glyph unicode="&#xa6;" d="M467 -350v758h90v-758h-90zM467 674v758h90v-758h-90z" />
<glyph unicode="&#xa7;" horiz-adv-x="1042" d="M115 530q0 122 72 215.5t198 133.5q-112 46 -165.5 118.5t-53.5 178.5q0 145 99.5 234t271.5 89q168 0 258 -86t90 -244v-24h-135q-9 246 -222 246q-97 0 -159 -58t-62 -149q0 -47 15 -84.5t35.5 -61t64.5 -47.5t76.5 -37t97.5 -36q174 -64 256 -152.5t82 -230.5 q0 -134 -67 -225t-197 -132q217 -94 217 -305q0 -139 -99.5 -233.5t-255.5 -94.5q-162 0 -259 91.5t-97 244.5v27h127q6 -234 227 -234q105 0 163.5 57t58.5 156q0 42 -13 75t-31.5 54.5t-57 43t-68.5 34t-88 33.5q-82 29 -133 51.5t-103 56.5t-80 72.5t-45.5 94 t-17.5 128.5zM250 530q0 -126 75 -201t201 -75q114 0 194.5 80.5t80.5 195.5q0 122 -76 198.5t-199 76.5q-116 0 -196 -80t-80 -195z" />
<glyph unicode="&#xa8;" d="M240 1188q0 38 29 68t67 30q39 0 68.5 -29.5t29.5 -68.5q0 -41 -28.5 -68.5t-69.5 -27.5t-68.5 27.5t-27.5 68.5zM590 1188q0 38 30 68t68 30q39 0 67.5 -29.5t28.5 -68.5q0 -41 -27.5 -68.5t-68.5 -27.5t-69.5 27.5t-28.5 68.5z" />
<glyph unicode="&#xa9;" horiz-adv-x="1705" d="M123 721q0 145 56 279t161 241q208 211 512 211q149 0 282.5 -55.5t237.5 -159.5q103 -103 157 -235.5t54 -280.5q0 -304 -211 -512q-107 -106 -241 -162.5t-279 -56.5t-277 56t-237 161q-104 104 -159.5 236t-55.5 278zM195 721q0 -130 50 -249.5t144 -213.5 t213.5 -144.5t249.5 -50.5q129 0 250.5 51t218.5 146q190 187 190 461q0 134 -49 253.5t-141 211.5q-194 194 -469 194q-133 0 -251.5 -49t-209.5 -141q-95 -97 -145.5 -217.5t-50.5 -251.5zM471 725q0 207 107.5 329t281.5 122q132 0 223 -72t103 -186h-105 q-20 82 -79.5 127t-147.5 45q-125 0 -195.5 -97t-70.5 -274q0 -171 72 -268t194 -97q91 0 156 52t84 141h102q-10 -123 -107.5 -201t-240.5 -78q-171 0 -274 122t-103 335z" />
<glyph unicode="&#xaa;" horiz-adv-x="831" d="M63 1151q0 149 87.5 242.5t222.5 93.5q173 0 241 -135v112h93v-620h-93v112q-65 -139 -233 -139q-143 0 -230.5 92t-87.5 242zM166 1147q0 -121 58.5 -185.5t166.5 -64.5q102 0 163.5 70t61.5 196q0 115 -61 180.5t-164 65.5t-164 -69.5t-61 -192.5z" />
<glyph unicode="&#xab;" horiz-adv-x="782" d="M45 436l244 395l86 -53l-209 -344l213 -332l-82 -53zM401 436l246 395l86 -53l-211 -344l215 -332l-82 -53z" />
<glyph unicode="&#xac;" horiz-adv-x="1705" d="M254 776v80h1198v-502h-80v422h-1118z" />
<glyph unicode="&#xad;" horiz-adv-x="710" d="M137 377v129h436v-129h-436z" />
<glyph unicode="&#xae;" horiz-adv-x="1705" d="M123 721q0 145 56 279t161 241q208 211 512 211q149 0 282.5 -55.5t237.5 -159.5q103 -103 157 -235.5t54 -280.5q0 -304 -211 -512q-107 -106 -241 -162.5t-279 -56.5t-277 56t-237 161q-104 104 -159.5 236t-55.5 278zM195 721q0 -130 50 -249.5t144 -213.5 t213.5 -144.5t249.5 -50.5q129 0 250.5 51t218.5 146q190 187 190 461q0 134 -49 253.5t-141 211.5q-194 194 -469 194q-133 0 -251.5 -49t-209.5 -141q-95 -97 -145.5 -217.5t-50.5 -251.5zM569 309v846h305q177 0 263 -56t86 -177q0 -89 -55 -149.5t-148 -70.5l190 -393 h-131l-182 377h-213v-377h-115zM684 764h168q139 0 196.5 34t57.5 128q0 79 -62.5 115t-191.5 36h-168v-313z" />
<glyph unicode="&#xaf;" d="M254 1118v117h516v-117h-516z" />
<glyph unicode="&#xb0;" horiz-adv-x="673" d="M63 1176q0 115 80.5 194.5t194.5 79.5q113 0 192.5 -80t79.5 -194q0 -113 -79.5 -193t-194.5 -80t-194 79.5t-79 193.5zM125 1176q0 -89 62.5 -151t150.5 -62q89 0 151 62.5t62 150.5t-62.5 150.5t-150.5 62.5q-89 0 -151 -62t-62 -151z" />
<glyph unicode="&#xb1;" horiz-adv-x="1705" d="M254 61v80h1198v-80h-1198zM254 727v80h559v354h80v-354h559v-80h-559v-352h-80v352h-559z" />
<glyph unicode="&#xb2;" horiz-adv-x="778" d="M47 575l209 207q23 23 68 67.5t64.5 64t53.5 55t48.5 54t35.5 47.5t29.5 49.5t15.5 45t7 47.5q0 78 -59 128.5t-154 50.5q-96 0 -153.5 -54.5t-57.5 -148.5v-4h-86v8q0 126 82 198t223 72q136 0 217.5 -67t81.5 -176q0 -26 -3.5 -50t-15 -50t-18.5 -43t-30 -45.5 t-31.5 -41t-42 -46.5t-43 -43.5t-50.5 -49.5l-213 -205h443v-70h-621z" />
<glyph unicode="&#xb3;" horiz-adv-x="778" d="M66 797h94q12 -174 211 -174q102 0 158.5 50.5t56.5 135.5q0 87 -56 137.5t-155 50.5q-27 0 -43 -2v76h47q91 0 141.5 42.5t50.5 115.5q0 74 -52 119t-138 45q-77 0 -125 -37.5t-57 -104.5h-95q10 98 85.5 154.5t191.5 56.5q125 0 203 -62.5t78 -164.5q0 -74 -45 -128.5 t-123 -74.5q88 -26 136 -84.5t48 -138.5q0 -116 -82 -186t-225 -70q-138 0 -217 63t-88 181z" />
<glyph unicode="&#xb4;" d="M379 1030l213 350h164l-283 -350h-94z" />
<glyph unicode="&#xb5;" horiz-adv-x="1093" d="M-111 -424l316 1487h121l-123 -590q-17 -87 -17 -141q0 -126 60 -192t174 -66q125 0 218 107.5t138 314.5l125 567h121l-166 -787q-25 -121 -25 -135q0 -63 68 -63q16 0 39 2l-18 -96q-63 -13 -76 -13q-133 0 -133 127q0 13 4 45q-43 -83 -124 -127.5t-188 -44.5 q-98 0 -170 45t-104 127l-119 -567h-121z" />
<glyph unicode="&#xb6;" d="M90 1130q0 155 107.5 252t287.5 97h447v-64h-129v-1415h-70v1415h-192v-1415h-70v782q-177 7 -279 102t-102 246z" />
<glyph unicode="&#xb7;" horiz-adv-x="589" d="M193 719q0 43 29.5 72.5t72.5 29.5t72.5 -29t29.5 -73t-29.5 -73.5t-72.5 -29.5t-72.5 30t-29.5 73z" />
<glyph unicode="&#xb8;" d="M301 -309q169 -33 225 -33q125 0 125 88q0 90 -137 90q-29 0 -45 -2v166h61v-100h15q103 0 158 -40.5t55 -111.5q0 -164 -215 -164q-104 0 -242 37v70z" />
<glyph unicode="&#xb9;" horiz-adv-x="778" d="M186 1374l41 72h217v-871h-84v799h-174z" />
<glyph unicode="&#xba;" horiz-adv-x="858" d="M68 1153q0 139 104.5 236.5t253.5 97.5q152 0 258.5 -97.5t106.5 -236.5q0 -140 -107.5 -238t-257.5 -98q-147 0 -252.5 98t-105.5 238zM168 1151q0 -107 76 -180.5t184 -73.5t185 74t77 180q0 108 -76.5 182t-185.5 74t-184.5 -74t-75.5 -182z" />
<glyph unicode="&#xbb;" horiz-adv-x="782" d="M45 102l215 332l-211 344l86 53l244 -395l-252 -387zM401 102l215 332l-208 344l86 53l243 -395l-252 -387z" />
<glyph unicode="&#xbc;" horiz-adv-x="1828" d="M176 1378l41 66h207v-811h-80v745h-168zM401 -39l918 1518h106l-915 -1518h-109zM1124 207l500 633v-568h94v-65h-94v-207h-84v207h-416zM1249 272h291v369z" />
<glyph unicode="&#xbd;" horiz-adv-x="1828" d="M176 1378l41 66h207v-811h-80v745h-168zM401 -39l918 1518h106l-915 -1518h-109zM1130 0l199 195q21 20 58.5 56t55 53t47 46.5t44 46t34.5 40.5t29.5 41t20 38.5t14.5 40.5t4 39q0 73 -56.5 119.5t-147.5 46.5q-90 0 -144.5 -51.5t-54.5 -139.5v-4h-84v8q0 117 79 184.5 t214 67.5q129 0 206.5 -62t77.5 -165q0 -46 -13.5 -87t-44.5 -82t-62 -73.5t-84 -83.5q-13 -12 -19 -18l-203 -193h422v-63h-592z" />
<glyph unicode="&#xbe;" horiz-adv-x="1828" d="M61 840h91q12 -162 202 -162q98 0 151.5 47t53.5 125q0 80 -54 128t-147 48h-43v70h47q87 0 135 39t48 106q0 70 -49 112t-131 42q-74 0 -121 -34.5t-54 -96.5h-90q9 90 81.5 143t183.5 53q119 0 192.5 -58t73.5 -153q0 -70 -42.5 -120t-117.5 -70q85 -25 130.5 -79.5 t45.5 -129.5q0 -108 -78.5 -174t-214.5 -66q-132 0 -208 60t-85 170zM401 -39l918 1518h106l-915 -1518h-109zM1124 207l500 633v-568h94v-65h-94v-207h-84v207h-416zM1249 272h291v369z" />
<glyph unicode="&#xbf;" horiz-adv-x="1052" d="M172 295q0 34 5 63.5t10.5 53.5t21 48.5t26 41t36 39t39.5 35t49 36t52 34.5t60 38q115 72 142 95q70 58 75 135v14q0 71 -47 115t-123 44q-87 0 -136.5 -47t-49.5 -131v-18h-111v24q0 135 80 207t231 72q124 0 202.5 -74.5t78.5 -193.5q0 -49 -14.5 -90.5t-33.5 -70.5 t-60.5 -63.5t-72 -55t-91.5 -58.5q-126 -81 -163 -113q-77 -69 -81 -160v-12q0 -96 58 -154.5t157 -58.5q113 0 175.5 69t62.5 199v7h118v-33q0 -171 -97.5 -271t-264.5 -100q-152 0 -243 91t-91 243zM436 1395q0 44 29 73t72 29t72.5 -29.5t29.5 -72.5t-29.5 -73t-72.5 -30 t-72 29.5t-29 73.5z" />
<glyph unicode="&#xc0;" horiz-adv-x="1222" d="M-18 0l643 1522l616 -1522h-145l-187 496h-598l-194 -496h-135zM356 610h510l-250 637zM369 1958h163l213 -350h-94z" />
<glyph unicode="&#xc1;" horiz-adv-x="1222" d="M-18 0l643 1522l616 -1522h-145l-187 496h-598l-194 -496h-135zM356 610h510l-250 637zM479 1608l213 350h164l-283 -350h-94z" />
<glyph unicode="&#xc2;" horiz-adv-x="1222" d="M-18 0l643 1522l616 -1522h-145l-187 496h-598l-194 -496h-135zM326 1608l213 350h145l213 -350h-92l-193 250l-194 -250h-92zM356 610h510l-250 637z" />
<glyph unicode="&#xc3;" horiz-adv-x="1222" d="M-18 0l643 1522l616 -1522h-145l-187 496h-598l-194 -496h-135zM322 1671q44 178 198 178q36 0 60 -8l77 -26q37 -11 62 -11q69 0 96 68h88q-25 -90 -76 -137t-122 -47q-33 0 -66 10l-80 26q-27 9 -57 9q-62 0 -92 -62h-88zM356 610h510l-250 637z" />
<glyph unicode="&#xc4;" horiz-adv-x="1222" d="M-18 0l643 1522l616 -1522h-145l-187 496h-598l-194 -496h-135zM340 1765q0 39 29 69t67 30q39 0 69 -30t30 -69q0 -41 -28.5 -68.5t-70.5 -27.5q-41 0 -68.5 27.5t-27.5 68.5zM356 610h510l-250 637zM690 1765q0 38 30 68.5t68 30.5q39 0 68 -30t29 -69q0 -41 -28 -68.5 t-69 -27.5t-69.5 27.5t-28.5 68.5z" />
<glyph unicode="&#xc5;" horiz-adv-x="1222" d="M-18 0l624 1460h39l596 -1460h-145l-187 496h-598l-194 -496h-135zM356 610h510l-250 633zM389 1737q0 98 69 166.5t167 68.5q100 0 167.5 -67.5t67.5 -167.5q0 -98 -68.5 -167t-166.5 -69q-97 0 -166.5 69t-69.5 167zM492 1737q0 -55 39 -94t94 -39t94 39t39 94 q0 57 -38.5 95t-94.5 38q-55 0 -94 -39t-39 -94z" />
<glyph unicode="&#xc6;" horiz-adv-x="1687" d="M8 0l529 1464h618l41 -125h-506l158 -458h526l43 -125h-526l215 -631h532l41 -125h-665l-170 496h-533l-176 -496h-127zM348 610h457l-217 662z" />
<glyph unicode="&#xc7;" horiz-adv-x="1464" d="M113 731q0 166 59.5 309.5t162.5 243t245 156.5t303 57q279 0 477 -154l-4 -147q-214 184 -461 184q-189 0 -335 -83t-225 -230.5t-79 -335.5q0 -191 82 -339.5t222.5 -228t316.5 -79.5q261 0 473 170l-2 -156q-104 -66 -226.5 -101.5t-238.5 -35.5q-219 0 -394 95.5 t-275.5 272t-100.5 402.5zM649 -309q169 -33 225 -33q125 0 125 88q0 90 -137 90q-29 0 -45 -2v166h62v-100h14q103 0 158 -40.5t55 -111.5q0 -164 -215 -164q-104 0 -242 37v70z" />
<glyph unicode="&#xc8;" horiz-adv-x="1050" d="M182 0v1464h725v-125h-592v-458h592v-125h-592v-631h592v-125h-725zM297 1958h164l213 -350h-94z" />
<glyph unicode="&#xc9;" horiz-adv-x="1050" d="M182 0v1464h725v-125h-592v-458h592v-125h-592v-631h592v-125h-725zM408 1608l213 350h163l-282 -350h-94z" />
<glyph unicode="&#xca;" horiz-adv-x="1050" d="M182 0v1464h725v-125h-592v-458h592v-125h-592v-631h592v-125h-725zM254 1608l213 350h145l213 -350h-92l-192 250l-195 -250h-92z" />
<glyph unicode="&#xcb;" horiz-adv-x="1050" d="M182 0v1464h725v-125h-592v-458h592v-125h-592v-631h592v-125h-725zM268 1765q0 38 29.5 68.5t67.5 30.5q39 0 68.5 -30t29.5 -69q0 -41 -28.5 -68.5t-69.5 -27.5t-69 27.5t-28 68.5zM618 1765q0 38 30.5 68.5t68.5 30.5q39 0 67.5 -30t28.5 -69q0 -41 -27.5 -68.5 t-68.5 -27.5q-42 0 -70.5 27.5t-28.5 68.5z" />
<glyph unicode="&#xcc;" horiz-adv-x="497" d="M6 1958h164l213 -350h-94zM182 0v1464h133v-1464h-133z" />
<glyph unicode="&#xcd;" horiz-adv-x="497" d="M117 1608l213 350h164l-283 -350h-94zM182 0v1464h133v-1464h-133z" />
<glyph unicode="&#xce;" horiz-adv-x="497" d="M-37 1608l213 350h146l213 -350h-93l-192 250l-195 -250h-92zM182 0v1464h133v-1464h-133z" />
<glyph unicode="&#xcf;" horiz-adv-x="497" d="M-23 1765q0 38 29.5 68.5t67.5 30.5q39 0 68.5 -30t29.5 -69q0 -41 -28.5 -68.5t-69.5 -27.5t-69 27.5t-28 68.5zM182 0v1464h133v-1464h-133zM328 1765q0 38 30 68.5t68 30.5q39 0 67.5 -30t28.5 -69q0 -41 -27.5 -68.5t-68.5 -27.5t-69.5 27.5t-28.5 68.5z" />
<glyph unicode="&#xd0;" horiz-adv-x="1435" d="M0 762v102h193v600h227q107 0 164 -1t139.5 -8t134.5 -20.5t110 -39.5t105 -64q121 -99 185.5 -252t64.5 -348q0 -197 -65 -349.5t-187 -248.5q-58 -46 -123.5 -74t-146.5 -40.5t-146 -15.5t-172 -3h-290v762h-193zM326 115h194q169 0 267 15t174 69q105 76 162 213 t57 321q0 304 -148 467q-33 37 -69 63.5t-80.5 43t-83 26.5t-98 14.5t-102.5 5.5t-118 1h-155v-490h426v-102h-426v-647z" />
<glyph unicode="&#xd1;" horiz-adv-x="1525" d="M182 0v1526l1028 -1225v1163h133v-1507l-1028 1227v-1184h-133zM473 1671q22 87 73 132.5t126 45.5q35 0 59 -8l78 -26q37 -11 61 -11q70 0 97 68h88q-25 -90 -76.5 -137t-122.5 -47q-32 0 -65 10l-80 26q-27 9 -58 9q-62 0 -92 -62h-88z" />
<glyph unicode="&#xd2;" horiz-adv-x="1792" d="M113 729q0 158 58.5 298.5t170.5 248.5q224 221 553 221q331 0 555 -221q112 -108 170.5 -249.5t58.5 -297.5q0 -155 -59.5 -295.5t-169.5 -247.5q-113 -109 -255 -167t-300 -58q-159 0 -300.5 58t-252.5 167q-110 109 -169.5 249.5t-59.5 293.5zM254 729 q0 -177 85 -326.5t232.5 -236t323.5 -86.5t324 86.5t233.5 236t85.5 326.5q0 178 -86 328t-234 236.5t-323 86.5t-322 -86t-233 -236t-86 -329zM653 1958h164l213 -350h-94z" />
<glyph unicode="&#xd3;" horiz-adv-x="1792" d="M113 729q0 158 58.5 298.5t170.5 248.5q224 221 553 221q331 0 555 -221q112 -108 170.5 -249.5t58.5 -297.5q0 -155 -59.5 -295.5t-169.5 -247.5q-113 -109 -255 -167t-300 -58q-159 0 -300.5 58t-252.5 167q-110 109 -169.5 249.5t-59.5 293.5zM254 729 q0 -177 85 -326.5t232.5 -236t323.5 -86.5t324 86.5t233.5 236t85.5 326.5q0 178 -86 328t-234 236.5t-323 86.5t-322 -86t-233 -236t-86 -329zM764 1608l213 350h164l-283 -350h-94z" />
<glyph unicode="&#xd4;" horiz-adv-x="1792" d="M113 729q0 158 58.5 298.5t170.5 248.5q224 221 553 221q331 0 555 -221q112 -108 170.5 -249.5t58.5 -297.5q0 -155 -59.5 -295.5t-169.5 -247.5q-113 -109 -255 -167t-300 -58q-159 0 -300.5 58t-252.5 167q-110 109 -169.5 249.5t-59.5 293.5zM254 729 q0 -177 85 -326.5t232.5 -236t323.5 -86.5t324 86.5t233.5 236t85.5 326.5q0 178 -86 328t-234 236.5t-323 86.5t-322 -86t-233 -236t-86 -329zM610 1608l213 350h146l213 -350h-92l-193 250l-195 -250h-92z" />
<glyph unicode="&#xd5;" horiz-adv-x="1792" d="M113 729q0 158 58.5 298.5t170.5 248.5q224 221 553 221q331 0 555 -221q112 -108 170.5 -249.5t58.5 -297.5q0 -155 -59.5 -295.5t-169.5 -247.5q-113 -109 -255 -167t-300 -58q-159 0 -300.5 58t-252.5 167q-110 109 -169.5 249.5t-59.5 293.5zM254 729 q0 -177 85 -326.5t232.5 -236t323.5 -86.5t324 86.5t233.5 236t85.5 326.5q0 178 -86 328t-234 236.5t-323 86.5t-322 -86t-233 -236t-86 -329zM606 1671q22 87 73 132.5t126 45.5q35 0 59 -8l78 -26q37 -11 62 -11q69 0 96 68h88q-25 -90 -76.5 -137t-122.5 -47 q-32 0 -65 10l-80 26q-27 9 -58 9q-62 0 -92 -62h-88z" />
<glyph unicode="&#xd6;" horiz-adv-x="1792" d="M113 729q0 158 58.5 298.5t170.5 248.5q224 221 553 221q331 0 555 -221q112 -108 170.5 -249.5t58.5 -297.5q0 -155 -59.5 -295.5t-169.5 -247.5q-113 -109 -255 -167t-300 -58q-159 0 -300.5 58t-252.5 167q-110 109 -169.5 249.5t-59.5 293.5zM254 729 q0 -177 85 -326.5t232.5 -236t323.5 -86.5t324 86.5t233.5 236t85.5 326.5q0 178 -86 328t-234 236.5t-323 86.5t-322 -86t-233 -236t-86 -329zM625 1765q0 39 29 69t67 30q39 0 68.5 -30t29.5 -69q0 -41 -28.5 -68.5t-69.5 -27.5t-68.5 27.5t-27.5 68.5zM975 1765 q0 38 30 68.5t68 30.5q39 0 67.5 -30t28.5 -69q0 -41 -27.5 -68.5t-68.5 -27.5t-69.5 27.5t-28.5 68.5z" />
<glyph unicode="&#xd7;" horiz-adv-x="1705" d="M309 123l488 487l-488 488l58 57l487 -487l487 487l58 -57l-488 -488l488 -487l-58 -57l-487 487l-487 -487z" />
<glyph unicode="&#xd8;" horiz-adv-x="1792" d="M113 731q0 156 58.5 295.5t170.5 247.5q111 108 253.5 166.5t299.5 58.5q310 0 514 -186l184 192l70 -67l-186 -191q96 -104 149 -240t53 -276q0 -175 -74 -328.5t-212 -263.5q-212 -172 -508 -172q-276 0 -488 172l-178 -184l-65 70l176 180q-104 98 -160.5 235 t-56.5 291zM256 731q0 -123 39.5 -225t126.5 -209l897 924q-179 159 -424 159q-174 0 -321 -86t-232.5 -235.5t-85.5 -327.5zM489 233q99 -77 196 -113t210 -36q131 0 249.5 50.5t205 136.5t137.5 206.5t51 253.5q0 117 -37.5 217t-116.5 205z" />
<glyph unicode="&#xd9;" horiz-adv-x="1417" d="M176 551v913h133v-956q0 -216 98.5 -322t301.5 -106q202 0 300.5 106t98.5 322v956h133v-913q0 -297 -132 -443.5t-400 -146.5t-400.5 147t-132.5 443zM465 1958h164l213 -350h-94z" />
<glyph unicode="&#xda;" horiz-adv-x="1417" d="M176 551v913h133v-956q0 -216 98.5 -322t301.5 -106q202 0 300.5 106t98.5 322v956h133v-913q0 -297 -132 -443.5t-400 -146.5t-400.5 147t-132.5 443zM575 1608l213 350h164l-282 -350h-95z" />
<glyph unicode="&#xdb;" horiz-adv-x="1417" d="M176 551v913h133v-956q0 -216 98.5 -322t301.5 -106q202 0 300.5 106t98.5 322v956h133v-913q0 -297 -132 -443.5t-400 -146.5t-400.5 147t-132.5 443zM422 1608l213 350h145l213 -350h-92l-192 250l-195 -250h-92z" />
<glyph unicode="&#xdc;" horiz-adv-x="1417" d="M176 551v913h133v-956q0 -216 98.5 -322t301.5 -106q202 0 300.5 106t98.5 322v956h133v-913q0 -297 -132 -443.5t-400 -146.5t-400.5 147t-132.5 443zM436 1765q0 39 29 69t67 30q39 0 69 -30t30 -69q0 -41 -28.5 -68.5t-70.5 -27.5q-41 0 -68.5 27.5t-27.5 68.5z M786 1765q0 38 30.5 68.5t68.5 30.5q39 0 67.5 -30t28.5 -69q0 -41 -27.5 -68.5t-68.5 -27.5q-42 0 -70.5 27.5t-28.5 68.5z" />
<glyph unicode="&#xdd;" horiz-adv-x="1118" d="M10 1464h160l393 -671l395 671h152l-481 -790v-674h-133v674zM426 1608l213 350h164l-283 -350h-94z" />
<glyph unicode="&#xde;" d="M182 0v1464h133v-299h134q134 0 214 -13t148 -62q68 -50 106.5 -136t38.5 -192q0 -213 -120 -309.5t-367 -96.5h-154v-356h-133zM315 473h91q61 0 105 2.5t89.5 9t76 19t59 33t44.5 50t25.5 70t9.5 93.5q0 157 -98 239q-46 37 -115.5 47.5t-195.5 10.5h-91v-574z" />
<glyph unicode="&#xdf;" horiz-adv-x="1058" d="M33 782v105h121v297q0 188 94 287.5t262 99.5q165 0 261.5 -104t96.5 -285q0 -235 -217 -318q151 -17 230.5 -127.5t79.5 -304.5q0 -218 -115 -347.5t-311 -129.5q-56 0 -123 25v131q58 -31 131 -31q136 0 212 92.5t76 261.5q0 177 -83 272t-240 95q-4 0 -74 -4v125 q16 -2 49 -2q131 0 194.5 66t63.5 204q0 131 -61 199.5t-180 68.5q-129 0 -187 -98q-23 -39 -30 -94t-7 -144v-1122h-122v782h-121z" />
<glyph unicode="&#xe0;" horiz-adv-x="1107" d="M84 438q0 214 116 348t296 134q231 0 323 -195v162h123v-887h-123v162q-43 -98 -123 -149.5t-188 -51.5q-191 0 -307.5 131t-116.5 346zM221 434q0 -173 78 -265.5t221 -92.5q137 0 219 100t82 281q0 164 -81 257t-218 93t-219 -99t-82 -274zM311 1380h164l213 -350h-94z " />
<glyph unicode="&#xe1;" horiz-adv-x="1107" d="M84 438q0 214 116 348t296 134q231 0 323 -195v162h123v-887h-123v162q-43 -98 -123 -149.5t-188 -51.5q-191 0 -307.5 131t-116.5 346zM221 434q0 -173 78 -265.5t221 -92.5q137 0 219 100t82 281q0 164 -81 257t-218 93t-219 -99t-82 -274zM422 1030l213 350h164 l-283 -350h-94z" />
<glyph unicode="&#xe2;" horiz-adv-x="1107" d="M84 438q0 214 116 348t296 134q231 0 323 -195v162h123v-887h-123v162q-43 -98 -123 -149.5t-188 -51.5q-191 0 -307.5 131t-116.5 346zM221 434q0 -173 78 -265.5t221 -92.5q137 0 219 100t82 281q0 164 -81 257t-218 93t-219 -99t-82 -274zM268 1030l213 350h146 l213 -350h-92l-193 250l-195 -250h-92z" />
<glyph unicode="&#xe3;" horiz-adv-x="1107" d="M84 438q0 214 116 348t296 134q231 0 323 -195v162h123v-887h-123v162q-43 -98 -123 -149.5t-188 -51.5q-191 0 -307.5 131t-116.5 346zM221 434q0 -173 78 -265.5t221 -92.5q137 0 219 100t82 281q0 164 -81 257t-218 93t-219 -99t-82 -274zM264 1094q22 87 73 132.5 t126 45.5q35 0 59 -8l78 -27q33 -10 62 -10q69 0 96 67h88q-25 -90 -76.5 -137t-122.5 -47q-32 0 -65 10l-80 27q-24 8 -58 8q-62 0 -92 -61h-88z" />
<glyph unicode="&#xe4;" horiz-adv-x="1107" d="M84 438q0 214 116 348t296 134q231 0 323 -195v162h123v-887h-123v162q-43 -98 -123 -149.5t-188 -51.5q-191 0 -307.5 131t-116.5 346zM221 434q0 -173 78 -265.5t221 -92.5q137 0 219 100t82 281q0 164 -81 257t-218 93t-219 -99t-82 -274zM283 1188q0 38 29 68t67 30 q39 0 68.5 -29.5t29.5 -68.5q0 -41 -28.5 -68.5t-69.5 -27.5t-68.5 27.5t-27.5 68.5zM633 1188q0 38 30 68t68 30q39 0 67.5 -29.5t28.5 -68.5q0 -41 -27.5 -68.5t-68.5 -27.5t-69.5 27.5t-28.5 68.5z" />
<glyph unicode="&#xe5;" horiz-adv-x="1107" d="M84 438q0 214 116 348t296 134q231 0 323 -195v162h123v-887h-123v162q-43 -98 -123 -149.5t-188 -51.5q-191 0 -307.5 131t-116.5 346zM221 434q0 -173 78 -265.5t221 -92.5q137 0 219 100t82 281q0 164 -81 257t-218 93t-219 -99t-82 -274zM291 1221q0 98 68.5 166.5 t166.5 68.5q100 0 168 -67.5t68 -167.5q0 -98 -69 -167t-167 -69q-97 0 -166 69t-69 167zM393 1221q0 -56 39 -95t94 -39t94 39t39 95q0 57 -38.5 96t-94.5 39q-55 0 -94 -39.5t-39 -95.5z" />
<glyph unicode="&#xe6;" horiz-adv-x="1624" d="M72 246q0 131 98.5 216t263.5 85q168 0 277 -92q4 62 4 69q0 146 -68.5 217.5t-208.5 71.5q-148 0 -301 -78l2 131q157 56 310 56q136 0 227.5 -51t114.5 -138q46 87 133 136t196 49q187 0 300.5 -123t113.5 -332v-25h-705q6 -171 86 -267.5t209 -96.5q205 0 299 211 l117 -62q-71 -135 -171.5 -199.5t-242.5 -64.5q-124 0 -211.5 53.5t-150.5 167.5q-35 -104 -129 -162.5t-227 -58.5q-154 0 -245 80t-91 207zM207 250q0 -85 60.5 -131.5t172.5 -46.5q118 0 190 57t72 141q0 75 -66.5 121.5t-180.5 46.5q-119 0 -183.5 -50.5t-64.5 -137.5z M838 543h551q-7 122 -81 190t-196 68q-109 0 -186.5 -71.5t-87.5 -186.5z" />
<glyph unicode="&#xe7;" horiz-adv-x="933" d="M92 432q0 216 136 352t352 136q159 0 276 -60l-2 -135q-127 86 -276 86q-166 0 -263.5 -106t-97.5 -281q0 -153 101 -255.5t260 -102.5q151 0 290 100l2 -135q-136 -74 -315 -74q-203 0 -333 134.5t-130 340.5zM334 -309q169 -33 225 -33q125 0 125 88q0 90 -137 90 q-29 0 -45 -2v166h61v-100h15q103 0 158 -40.5t55 -111.5q0 -164 -216 -164q-103 0 -241 37v70z" />
<glyph unicode="&#xe8;" horiz-adv-x="1017" d="M88 434q0 219 120.5 352.5t311.5 133.5q182 0 294 -122t112 -327v-31h-705q3 -171 86 -269.5t217 -98.5q192 0 295 213l113 -62q-67 -135 -166 -198.5t-242 -63.5q-194 0 -315 131.5t-121 341.5zM229 545h551q-7 122 -79.5 189t-196.5 67q-109 0 -187 -70.5t-88 -185.5z M266 1380h164l213 -350h-94z" />
<glyph unicode="&#xe9;" horiz-adv-x="1017" d="M88 434q0 219 120.5 352.5t311.5 133.5q182 0 294 -122t112 -327v-31h-705q3 -171 86 -269.5t217 -98.5q192 0 295 213l113 -62q-67 -135 -166 -198.5t-242 -63.5q-194 0 -315 131.5t-121 341.5zM229 545h551q-7 122 -79.5 189t-196.5 67q-109 0 -187 -70.5t-88 -185.5z M377 1030l213 350h164l-283 -350h-94z" />
<glyph unicode="&#xea;" horiz-adv-x="1017" d="M88 434q0 219 120.5 352.5t311.5 133.5q182 0 294 -122t112 -327v-31h-705q3 -171 86 -269.5t217 -98.5q192 0 295 213l113 -62q-67 -135 -166 -198.5t-242 -63.5q-194 0 -315 131.5t-121 341.5zM223 1030l213 350h146l213 -350h-93l-192 250l-195 -250h-92zM229 545h551 q-7 122 -79.5 189t-196.5 67q-109 0 -187 -70.5t-88 -185.5z" />
<glyph unicode="&#xeb;" horiz-adv-x="1017" d="M88 434q0 219 120.5 352.5t311.5 133.5q182 0 294 -122t112 -327v-31h-705q3 -171 86 -269.5t217 -98.5q192 0 295 213l113 -62q-67 -135 -166 -198.5t-242 -63.5q-194 0 -315 131.5t-121 341.5zM229 545h551q-7 122 -79.5 189t-196.5 67q-109 0 -187 -70.5t-88 -185.5z M238 1188q0 38 29 68t67 30q39 0 68.5 -29.5t29.5 -68.5q0 -41 -28.5 -68.5t-69.5 -27.5t-68.5 27.5t-27.5 68.5zM588 1188q0 38 30 68t68 30q39 0 67.5 -29.5t28.5 -68.5q0 -41 -27.5 -68.5t-68.5 -27.5t-69.5 27.5t-28.5 68.5z" />
<glyph unicode="&#xec;" horiz-adv-x="471" d="M-8 1380h164l213 -350h-95zM174 0v887h123v-887h-123z" />
<glyph unicode="&#xed;" horiz-adv-x="471" d="M102 1030l213 350h164l-282 -350h-95zM174 0v887h123v-887h-123z" />
<glyph unicode="&#xee;" horiz-adv-x="471" d="M-51 1030l213 350h145l213 -350h-92l-192 250l-195 -250h-92zM174 0v887h123v-887h-123z" />
<glyph unicode="&#xef;" horiz-adv-x="471" d="M-37 1188q0 38 29 68t67 30q39 0 69 -30t30 -68q0 -41 -28.5 -68.5t-70.5 -27.5q-41 0 -68.5 27.5t-27.5 68.5zM174 0v887h123v-887h-123zM313 1188q0 38 30.5 68t68.5 30q39 0 67.5 -29.5t28.5 -68.5q0 -41 -27.5 -68.5t-68.5 -27.5q-42 0 -70.5 27.5t-28.5 68.5z" />
<glyph unicode="&#xf0;" horiz-adv-x="1138" d="M84 424q0 125 65.5 232.5t172.5 169t227 61.5q175 0 344 -146q-33 124 -116 252t-208 240l-313 -146l-47 82l276 131q-103 81 -243 158l59 90q186 -108 297 -196l342 159l51 -84l-307 -147q369 -366 369 -784q0 -246 -134.5 -390.5t-351.5 -144.5q-131 0 -242 61.5 t-176 168t-65 233.5zM219 428q0 -148 101 -250t247 -102q143 0 245.5 102.5t102.5 249.5q0 148 -101 250t-247 102t-247 -102t-101 -250z" />
<glyph unicode="&#xf1;" horiz-adv-x="1067" d="M164 0v887h117v-137q109 170 313 170q149 0 234 -83t85 -235v-602h-122v547q0 133 -56 197.5t-174 64.5q-144 0 -209 -85.5t-65 -260.5v-463h-123zM244 1094q44 178 198 178q36 0 60 -8l78 -27q33 -10 61 -10q69 0 96 67h88q-25 -90 -76 -137t-122 -47q-33 0 -66 10 l-80 27q-24 8 -57 8q-62 0 -92 -61h-88z" />
<glyph unicode="&#xf2;" horiz-adv-x="1142" d="M90 442q0 199 139.5 338.5t337.5 139.5q100 0 190 -37.5t154.5 -101.5t103 -152.5t38.5 -186.5q0 -200 -143 -340.5t-343 -140.5q-196 0 -336.5 140t-140.5 341zM223 440q0 -153 101.5 -258.5t246.5 -105.5q144 0 246.5 105t102.5 259t-101.5 259.5t-247.5 105.5 q-147 0 -247.5 -105t-100.5 -260zM328 1380h164l213 -350h-95z" />
<glyph unicode="&#xf3;" horiz-adv-x="1142" d="M90 442q0 199 139.5 338.5t337.5 139.5q100 0 190 -37.5t154.5 -101.5t103 -152.5t38.5 -186.5q0 -200 -143 -340.5t-343 -140.5q-196 0 -336.5 140t-140.5 341zM223 440q0 -153 101.5 -258.5t246.5 -105.5q144 0 246.5 105t102.5 259t-101.5 259.5t-247.5 105.5 q-147 0 -247.5 -105t-100.5 -260zM438 1030l213 350h164l-283 -350h-94z" />
<glyph unicode="&#xf4;" horiz-adv-x="1142" d="M90 442q0 199 139.5 338.5t337.5 139.5q100 0 190 -37.5t154.5 -101.5t103 -152.5t38.5 -186.5q0 -200 -143 -340.5t-343 -140.5q-196 0 -336.5 140t-140.5 341zM223 440q0 -153 101.5 -258.5t246.5 -105.5q144 0 246.5 105t102.5 259t-101.5 259.5t-247.5 105.5 q-147 0 -247.5 -105t-100.5 -260zM285 1030l213 350h145l213 -350h-92l-193 250l-194 -250h-92z" />
<glyph unicode="&#xf5;" horiz-adv-x="1142" d="M90 442q0 199 139.5 338.5t337.5 139.5q100 0 190 -37.5t154.5 -101.5t103 -152.5t38.5 -186.5q0 -200 -143 -340.5t-343 -140.5q-196 0 -336.5 140t-140.5 341zM223 440q0 -153 101.5 -258.5t246.5 -105.5q144 0 246.5 105t102.5 259t-101.5 259.5t-247.5 105.5 q-147 0 -247.5 -105t-100.5 -260zM281 1094q44 178 198 178q36 0 60 -8l77 -27q33 -10 62 -10q69 0 96 67h88q-25 -90 -76 -137t-122 -47q-33 0 -66 10l-80 27q-24 8 -57 8q-62 0 -92 -61h-88z" />
<glyph unicode="&#xf6;" horiz-adv-x="1142" d="M90 442q0 199 139.5 338.5t337.5 139.5q100 0 190 -37.5t154.5 -101.5t103 -152.5t38.5 -186.5q0 -200 -143 -340.5t-343 -140.5q-196 0 -336.5 140t-140.5 341zM223 440q0 -153 101.5 -258.5t246.5 -105.5q144 0 246.5 105t102.5 259t-101.5 259.5t-247.5 105.5 q-147 0 -247.5 -105t-100.5 -260zM299 1188q0 38 29 68t67 30q39 0 69 -30t30 -68q0 -41 -28.5 -68.5t-70.5 -27.5q-41 0 -68.5 27.5t-27.5 68.5zM649 1188q0 38 30.5 68t68.5 30q39 0 67.5 -29.5t28.5 -68.5q0 -41 -27.5 -68.5t-68.5 -27.5q-42 0 -70.5 27.5t-28.5 68.5z " />
<glyph unicode="&#xf7;" horiz-adv-x="1705" d="M254 571v80h1198v-80h-1198zM756 266q0 40 29.5 70.5t68.5 30.5q41 0 69.5 -30.5t28.5 -70.5q0 -41 -28.5 -69.5t-69.5 -28.5q-42 0 -70 28t-28 70zM756 956q0 41 29 70t69 29q41 0 69.5 -29t28.5 -70q0 -40 -28.5 -70t-69.5 -30t-69.5 29.5t-28.5 70.5z" />
<glyph unicode="&#xf8;" horiz-adv-x="1142" d="M88 432q0 134 62 245.5t174 177t251 65.5q162 0 302 -111l110 113l62 -58l-113 -110q117 -150 117 -310q0 -209 -143.5 -346t-350.5 -137q-84 0 -154 27t-141 86l-117 -115l-55 59l111 113q-115 142 -115 301zM223 434q0 -109 70 -213l500 502q-91 82 -211 82 q-157 0 -258 -103.5t-101 -267.5zM346 160q104 -82 217 -82q153 0 254 103.5t101 262.5q0 113 -68 220z" />
<glyph unicode="&#xf9;" horiz-adv-x="1079" d="M164 381v506h123v-443q0 -194 54.5 -281t197.5 -87t198.5 87t55.5 281v443h122v-506q0 -209 -94.5 -314.5t-279.5 -105.5q-184 0 -280.5 106t-96.5 314zM297 1380h164l213 -350h-94z" />
<glyph unicode="&#xfa;" horiz-adv-x="1079" d="M164 381v506h123v-443q0 -194 54.5 -281t197.5 -87t198.5 87t55.5 281v443h122v-506q0 -209 -94.5 -314.5t-279.5 -105.5q-184 0 -280.5 106t-96.5 314zM408 1030l213 350h163l-282 -350h-94z" />
<glyph unicode="&#xfb;" horiz-adv-x="1079" d="M164 381v506h123v-443q0 -194 54.5 -281t197.5 -87t198.5 87t55.5 281v443h122v-506q0 -209 -94.5 -314.5t-279.5 -105.5q-184 0 -280.5 106t-96.5 314zM254 1030l213 350h145l213 -350h-92l-192 250l-195 -250h-92z" />
<glyph unicode="&#xfc;" horiz-adv-x="1079" d="M164 381v506h123v-443q0 -194 54.5 -281t197.5 -87t198.5 87t55.5 281v443h122v-506q0 -209 -94.5 -314.5t-279.5 -105.5q-184 0 -280.5 106t-96.5 314zM268 1188q0 38 29.5 68t67.5 30q39 0 68.5 -29.5t29.5 -68.5q0 -41 -28.5 -68.5t-69.5 -27.5t-69 27.5t-28 68.5z M618 1188q0 38 30.5 68t68.5 30q39 0 67.5 -29.5t28.5 -68.5q0 -41 -27.5 -68.5t-68.5 -27.5q-42 0 -70.5 27.5t-28.5 68.5z" />
<glyph unicode="&#xfd;" horiz-adv-x="825" d="M43 887h131l254 -694l234 694h131l-459 -1333h-127l155 452zM281 1030l213 350h163l-282 -350h-94z" />
<glyph unicode="&#xfe;" horiz-adv-x="1107" d="M164 -446v1996h119v-829q40 92 125.5 145.5t191.5 53.5q188 0 302 -131.5t114 -348.5q0 -223 -113 -351t-297 -128q-219 0 -323 203v-610h-119zM285 449q0 -175 88.5 -274t226.5 -99q132 0 207.5 95t75.5 267t-78.5 270.5t-216.5 98.5q-139 0 -221 -94t-82 -264z" />
<glyph unicode="&#xff;" horiz-adv-x="825" d="M43 887h131l254 -694l234 694h131l-459 -1333h-127l155 452zM141 1188q0 38 29.5 68t67.5 30q39 0 68.5 -29.5t29.5 -68.5q0 -41 -28.5 -68.5t-69.5 -27.5t-69 27.5t-28 68.5zM492 1188q0 38 30 68t68 30q39 0 67.5 -29.5t28.5 -68.5q0 -41 -27.5 -68.5t-68.5 -27.5 t-69.5 27.5t-28.5 68.5z" />
<glyph unicode="&#x152;" horiz-adv-x="2320" d="M113 733q0 156 56.5 294.5t162.5 246.5q107 109 248 167t299 58q399 0 604 -338v303h698v-125h-575v-458h575v-125h-575v-631h575v-125h-698v311q-95 -165 -256.5 -255.5t-360.5 -90.5q-255 0 -460 160q-140 109 -216.5 267.5t-76.5 340.5zM242 731q0 -266 184 -459 q86 -90 199 -138t237 -48q130 0 244.5 50t196 135.5t129 205t47.5 254.5q0 141 -47 262t-129 205.5t-196 132t-245 47.5q-208 0 -377 -133q-117 -92 -180 -226t-63 -288z" />
<glyph unicode="&#x153;" horiz-adv-x="1841" d="M92 442q0 130 64.5 240.5t173 174t233.5 63.5q291 0 412 -232q38 107 137 170.5t227 63.5q184 0 297 -123.5t113 -331.5v-25h-705v-6q0 -162 82.5 -261t210.5 -99q206 0 301 213l117 -64q-139 -264 -403 -264q-135 0 -239 66.5t-138 171.5q-55 -112 -162.5 -174 t-243.5 -62q-133 0 -243 64t-172 174t-62 241zM225 440q0 -153 101.5 -258.5t246.5 -105.5q144 0 246.5 105t102.5 259q0 155 -102 261t-247 106q-146 0 -247 -106t-101 -261zM1053 545h551q-7 122 -81 190t-196 68q-109 0 -188 -72t-86 -186z" />
<glyph unicode="&#x178;" horiz-adv-x="1118" d="M10 1464h160l393 -671l395 671h152l-481 -790v-674h-133v674zM287 1765q0 39 29 69t67 30q39 0 68.5 -30t29.5 -69q0 -41 -28.5 -68.5t-69.5 -27.5t-68.5 27.5t-27.5 68.5zM637 1765q0 38 30 68.5t68 30.5q39 0 67.5 -30t28.5 -69q0 -41 -27.5 -68.5t-68.5 -27.5 t-69.5 27.5t-28.5 68.5z" />
<glyph unicode="&#x2c6;" d="M225 1030l213 350h146l213 -350h-92l-193 250l-195 -250h-92z" />
<glyph unicode="&#x2dc;" d="M221 1094q22 87 73 132.5t126 45.5q35 0 59 -8l78 -27q33 -10 61 -10q70 0 97 67h88q-25 -90 -76.5 -137t-122.5 -47q-32 0 -65 10l-80 27q-24 8 -58 8q-62 0 -92 -61h-88z" />
<glyph unicode="&#x2000;" horiz-adv-x="986" />
<glyph unicode="&#x2001;" horiz-adv-x="1972" />
<glyph unicode="&#x2002;" horiz-adv-x="986" />
<glyph unicode="&#x2003;" horiz-adv-x="1972" />
<glyph unicode="&#x2004;" horiz-adv-x="657" />
<glyph unicode="&#x2005;" horiz-adv-x="493" />
<glyph unicode="&#x2006;" horiz-adv-x="328" />
<glyph unicode="&#x2007;" horiz-adv-x="328" />
<glyph unicode="&#x2008;" horiz-adv-x="246" />
<glyph unicode="&#x2009;" horiz-adv-x="394" />
<glyph unicode="&#x200a;" horiz-adv-x="109" />
<glyph unicode="&#x2010;" horiz-adv-x="710" d="M137 377v129h436v-129h-436z" />
<glyph unicode="&#x2011;" horiz-adv-x="710" d="M137 377v129h436v-129h-436z" />
<glyph unicode="&#x2012;" horiz-adv-x="710" d="M137 377v129h436v-129h-436z" />
<glyph unicode="&#x2013;" d="M0 401v80h1024v-80h-1024z" />
<glyph unicode="&#x2014;" horiz-adv-x="2048" d="M0 401v80h2048v-80h-2048z" />
<glyph unicode="&#x2018;" horiz-adv-x="589" d="M123 993l262 504l82 -31l-195 -540z" />
<glyph unicode="&#x2019;" horiz-adv-x="589" d="M123 958l194 539l150 -65l-262 -506z" />
<glyph unicode="&#x201a;" horiz-adv-x="589" d="M121 -283l203 537l145 -61l-264 -515z" />
<glyph unicode="&#x201c;" horiz-adv-x="876" d="M106 993l261 504l82 -31l-195 -540zM428 993l262 504l82 -31l-194 -540z" />
<glyph unicode="&#x201d;" horiz-adv-x="876" d="M106 958l193 539l150 -65l-263 -506zM428 958l195 539l149 -65l-262 -506z" />
<glyph unicode="&#x201e;" horiz-adv-x="876" d="M106 -287l193 541l150 -68l-263 -505zM428 -287l195 541l149 -68l-262 -505z" />
<glyph unicode="&#x2022;" horiz-adv-x="1208" d="M307 762q0 123 87 209t210 86q122 0 208.5 -86t86.5 -209q0 -122 -87 -209.5t-210 -87.5t-209 87t-86 210z" />
<glyph unicode="&#x2026;" horiz-adv-x="2048" d="M240 84q0 43 29.5 72.5t72.5 29.5t72.5 -29t29.5 -73t-29.5 -73t-72.5 -29t-72.5 29.5t-29.5 72.5zM922 84q0 43 29.5 72.5t72.5 29.5t72.5 -29t29.5 -73t-29.5 -73t-72.5 -29t-72.5 29.5t-29.5 72.5zM1606 84q0 43 29.5 72.5t72.5 29.5t72.5 -29t29.5 -73t-29.5 -73 t-72.5 -29t-72.5 29.5t-29.5 72.5z" />
<glyph unicode="&#x202f;" horiz-adv-x="394" />
<glyph unicode="&#x2039;" horiz-adv-x="421" d="M43 436l244 395l86 -51l-209 -346l215 -332l-84 -51z" />
<glyph unicode="&#x203a;" horiz-adv-x="421" d="M43 102l215 332l-211 346l88 51l244 -395l-254 -385z" />
<glyph unicode="&#x205f;" horiz-adv-x="493" />
<glyph unicode="&#x20ac;" horiz-adv-x="1179" d="M4 549l21 98h133q-2 23 -2 72q0 32 4 90h-156l21 100h147q46 260 201.5 415t369.5 155q211 0 359 -154v-149q-163 184 -348 184q-176 0 -294 -121t-157 -330h651l-28 -100h-635q-4 -58 -4 -90q0 -49 2 -72h588l-31 -98h-547q35 -218 153 -343.5t287 -125.5 q98 0 194.5 43.5t174.5 126.5l-4 -152q-77 -66 -174.5 -101.5t-186.5 -35.5q-224 0 -380 157.5t-195 430.5h-164z" />
<glyph unicode="&#x2122;" horiz-adv-x="1705" d="M274 1403v51h420v-51h-174v-479h-67v479h-179zM825 924v530h101l174 -440l162 440h102v-530h-59v479l-181 -479h-49l-190 479v-479h-60z" />
<glyph unicode="&#x25fc;" horiz-adv-x="890" d="M0 0v891h891v-891h-891z" />
<glyph unicode="&#xfb01;" horiz-adv-x="966" d="M27 782v105h166v256q0 68 1.5 113t6.5 94.5t15 79.5t27 59.5t42 45t60 25t81 9.5q58 0 119 -21l-23 -108q-49 24 -88 24q-70 0 -94.5 -55.5t-24.5 -185.5v-336h195v-105h-195v-782h-122v782h-166zM637 1233q0 40 28 67t66 27q39 0 66.5 -26.5t27.5 -67.5 q0 -39 -26.5 -66.5t-67.5 -27.5t-67.5 27.5t-26.5 66.5zM670 0v887h123v-887h-123z" />
<glyph unicode="&#xfb02;" horiz-adv-x="976" d="M27 782v105h166v256q0 68 1.5 113t6.5 94.5t15 79.5t27 59.5t42 45t60 25t81 9.5q58 0 119 -21l-23 -108q-49 24 -88 24q-70 0 -94.5 -55.5t-24.5 -185.5v-336h195v-105h-195v-782h-122v782h-166zM680 0v1550h123v-1550h-123z" />
</font>
</defs>
</svg>
